1 сезон

1 сезон

iTunes

1

iTunes

Кинопоиск HD

iTunes

13

1 сезон

RePack

30

Deluxe

ВАЖНО

ИГРА 18+

pack

RePack

MK11
pack

Легкие деньги

RePack

jed

RePack

fifa19

RePack

RDR2

RePack

NEED FOR SPEED™ PAYBACK

4 сезон

9 сезон

Бесстыжие 9 сезон

Все сериалы

все сериалы на PB.wtf

RePack

FAR CRY 5
  
Magnet ссылка

Беззаботная / Happy-Go-Lucky (Майк Ли) [2008 г., Комедия, Драма, BDRip, MVO (Rus) + Профессиональный двухголосый (Ukr) +Оригинал] piratbit.pw

Беззаботная через торрент piratbit.pw

Размер: 1.61 GB | Добавлен: 8 лет 3 мес. назад | Торрент скачан:98 раз
Скачать  

18-01-2013 22:08 Беззаботная Скачать торрент  

Беззаботная / Happy-Go-Lucky
«Один из фильмов этой осени, который вызовет вашу улыбку».

Год выпуска: 2008
Страна: Великобритания
Жанр: Комедия, Драма
Продолжительность: 01:59:08
Перевод: Профессиональный + Оригинал

Режиссер: Майк Ли
Продюссер: Саймон Ченнинг-Вильямс, Джеймс Клэйтон, Гэйл Иган
Сценарий: Майк Ли
Премьера в мире: 12 февраля 2008

В ролях: Салли Хокинс, Эллиот Кауэн, Алексис Зегерман, Андреа Райзборо, Шинед Мэтьюз, Кейт О’Флинн, Сара Нилс, Эдди Марсан, Джозеф Клоска, Сильвестра Ле Тузель, Анна Рейнольдс, Нонсо Анози, Тревор Купер, Карина Фернандез, Филип Ардитти, Висс Элиот Сафави, Ребека Стэтон, Джек МакГичин, Чарли Даффилд, Стэнли Таунсенд, Сэмюэл Рукин, Кэролайн Мартин, Оливер Молтман, Стефани Кэннон, Тим Гленфилд

Описание: 30-летняя учительница Поппи ничем не отличается от простых людей — она одинока, живет на небольшую зарплату, из-за чего вынуждена снимать квартиру вместе с подругой. Однако Поппи уверена, что у нее все просто замечательно. Она идет по жизни смеясь, ни о чем не задумываясь, ничего не боясь, излучая-таки просто детскую непосредственность. Такой заряд оптимизма, наконец, и правда притягивает к ней счастье.

Качество: BDRip (Исходник Blu-Ray)
Формат: AVI
Видео кодек: XviD
Аудио кодек: AC3
Видео: 720х304, 23,976 fps, 1342 kbps, 0.256 bit/pixel
Аудио#1: 48 kHz, AC3 2.0, 192.00 kbps / Профессиональный (многоголосый закадровый)
Аудио#2: 48 kHz, AC3 2.0, 192.00 kbps / Профессиональный (двухголосый закадровый) - (Украинский - Новый Канал)
Аудио#3: 48 kHz, AC3 2.0, 192.00 kbps / Оригинал (Английский) / внешняя
&
Общее
Полное имя : E:Фильмы МHappy-Go-Lucky.2008.BDRip.Rus.Ukr.EngHappy-Go-Lucky.2008.BDRip.Rus.Ukr.avi
Формат : AVI
Формат/Информация : Audio Video Interleave
Размер файла : 1,45 Гбайт
Продолжительность : 1 ч. 59 м.
Общий поток : 1739 Кбит/сек
Программа кодирования : VirtualDubModRus 1.5.10.2 (build 2542/release)
Библиотека кодирования : VirtualDubMod build 2542/release

Видео
Идентификатор : 0
Формат : MPEG-4 Visual
Профиль формата : Advanced Simple@L5
Параметр BVOP формата : 1
Параметр QPel формата : Нет
Параметр GMC формата : Без точки перехода
Параметр матрицы формата : Выборочная
Режим смешивания : Сжатый битовый поток
Идентификатор кодека : XVID
Идентификатор кодека/Подсказка : XviD
Продолжительность : 1 ч. 59 м.
Битрейт : 1342 Кбит/сек
Ширина : 720 пикселей
Высота : 304 пикселя
Соотношение сторон : 2,35:1
Частота кадров : 23,976 кадра/сек
Цветовое пространство : YUV
Субдискретизация насыщенности : 4:2:0
Битовая глубина : 8 бит
Тип развёртки : Прогрессивная
Метод сжатия : С потерями
Бит/(Пиксели*Кадры) : 0.256
Размер потока : 1,12 Гбайт (77%)
Библиотека кодирования : XviD 65

Аудио #1
Идентификатор : 1
Формат : AC-3
Формат/Информация : Audio Coding 3
Расширение режима : CM (complete main)
Параметр Endianness формата : Big
Идентификатор кодека : 2000
Продолжительность : 1 ч. 58 м.
Вид битрейта : Постоянный
Битрейт : 192 Кбит/сек
Каналы : 2 канала
Расположение каналов : Front: L R
Частота : 48,0 КГц
Битовая глубина : 16 бит
Метод сжатия : С потерями
Размер потока : 163 Мбайт (11%)
Выравнивание : Разделение по промежуткам
Продолжительность промежутка : 42 мс. (1,01 видеокадр)
Время предзагрузки промежутка : 500 мс.

Аудио #2
Идентификатор : 2
Формат : AC-3
Формат/Информация : Audio Coding 3
Расширение режима : CM (complete main)
Параметр Endianness формата : Big
Идентификатор кодека : 2000
Продолжительность : 1 ч. 59 м.
Вид битрейта : Постоянный
Битрейт : 192 Кбит/сек
Каналы : 2 канала
Расположение каналов : Front: L R
Частота : 48,0 КГц
Битовая глубина : 16 бит
Метод сжатия : С потерями
Размер потока : 164 Мбайт (11%)
Выравнивание : Разделение по промежуткам
Продолжительность промежутка : 42 мс. (1,00 видеокадр)
Время предзагрузки промежутка : 500 мс.
Заголовок : Профессиональный (двухголосый закадровый) - (Украинский - Новый Канал)


Беззаботная скачать торрент


piratbit.pw



Скачать Беззаботная через торрент http://i53.fastpic.ru/big/2013/0118/26/4f19e74f5bd919fef9566b2d3bda3726.jpg Скачать фильм Беззаботная через торрент бесплантно в хорошем качестве Описание: 30-летняя учительница Поппи ничем не отличается от простых людей — она одинока, живет на небольшую зарплату, из-за чего вынуждена ... 5 10 1
Info! Золотая раздача, скачанное не засчитывается.
Торрент: Зарегистрирован [2013-01-18 22:08] · скачан: 98 раз
Статус: √ проверено
Размер: 1.61 GB
Как cкачать? Как скачать Беззаботная через торрент | UTorrent

28-11-2019 20:33  

Отключить всю рекламу на сайте

    Дорогой пользователь! Огромная просьба, поблагодарите релизера, оцените раздачу и оставьте свои комментарий, если Вы скачали Беззаботная через торрент бесплатно! Внесите свою лепту в развитие PiratBit!
    Комментировать посты могут только пользователи прошедшие не сложную регистрацию
    Показать сообщения:    

    Беззаботная через торрент
    Скачать бесплатно Беззаботная
    Беззаботная скачать торрент
    Беззаботная смотреть онлайн
    Cкачать фильм Беззаботная бесплатно
    Беззаботная скачать торрент в хорошем качестве
    Беззаботная смотреть онлайн бесплатно в хорошем качестве


    Вы не можете начинать темы
    Вы не можете отвечать на сообщения
    Вы не можете редактировать свои сообщения
    Вы не можете удалять свои сообщения
    Вы не можете голосовать в опросах
    Вы не можете прикреплять файлы к сообщениям
    Вы можете скачивать файлы