1 сезон

1 сезон

iTunes

1

iTunes

Кинопоиск HD

iTunes

13

1 сезон

RePack

30

Deluxe

ВАЖНО

ИГРА 18+

pack

RePack

MK11
pack

Легкие деньги

RePack

jed

RePack

fifa19

RePack

RDR2

RePack

NEED FOR SPEED™ PAYBACK

4 сезон

9 сезон

Бесстыжие 9 сезон

Все сериалы

все сериалы на PB.wtf

RePack

FAR CRY 5
  
Magnet ссылка

Близкие враги / L'ennemi intime (Флоран Эмилио Сири / Florent Emilio Siri) [2007 г., Драма, военный, история, HDRip] MVO + Fre piratbit.pw

Близкие враги через торрент piratbit.pw

Размер: 2.19 GB | Добавлен: 8 лет 3 мес. назад | Торрент скачан:39 раз
Скачать  

18-01-2013 17:34 Близкие враги Скачать торрент  

Близкие враги / L'ennemi intime«The Scars of war last forever»Год выпуска: 2007
Страна: Франция, Марокко, Agora Films, Banque Populaire Images 7, Canal+ [fr], Ciné Cinémas, Cofimage 18, France 2 Cinéma, Les Films du Kiosque, SND, Uni Etoile 4
Жанр: Драма, военный, история
Продолжительность: 01:50:33
Перевод: Профессиональный (многоголосый, закадровый) + Оригинал
Субтитры: нет

Режиссер: Флоран Эмилио Сири / Florent Emilio Siri

В ролях: Бенуа Мажимель, Альбер Дюпонтель, Орельен Рекуан, Марк Барбе, Эрик Савен, Мохамед Феллаг, Абделхафид Металси, Венсан Ротье, Эдриан Сейнт-Жоре, Гийом Гуи, Анже Рузе, Антуан Лорен, Антони Декади, Ксавьер Ротманн, Тимоти Манесс, Мартин Сименон, Мохамед Майд, Ибрахим Мансури

Описание: Действие разворачивается в 1959 году. Вот уже на протяжении 5-ти лет в Алжире идёт война, которая получила название «умиротворение территорий». Командование подразделением французской армии принимает молодой, подчинённый идеалам лейтенант Террьен, моральной опорой которого становится сержант Дуньяк. Он помогает Террьену понять истинные реалии войны. В свою очередь лейтенант внимательно прислушивается к наставлениям сержанта. Однако кампания приобретает всё более неблагоприятный оборот, а отношения сержанта с лейтенантом становятся всё враждебнее…



Качество: HDRip
Формат: AVI
Видео кодек: XviD
Аудио кодек: AC3
Видео: 720x304 (2.35), 24.000 fps, 2 177 Kbps (0.414 bit/pixel)
Аудио 1: AC-3, 48.0 KHz, 2 ch, 192 Kbps Rus
Аудио 2: AC-3, 48.0 KHz, 6 ch, 448 Kbps Fre
Complete name : D:VideoБлизкие враги.avi
Format : AVI
Format/Info : Audio Video Interleave
Format profile : OpenDML
File size : 2.19 GiB
Duration : 1h 50mn
Overall bit rate : 2 835 Kbps
Movie name : Близкие враги / L'Ennemi intime (2007)
Director : miha2154
Writing application : VirtualDubMod 1.5.10.2 (build 2540/release)
Writing library : VirtualDubMod build 2540/release
Copyright : специально для BitTorrent трекер RuTracker.org

Video
ID : 0
Format : MPEG-4 Visual
Format profile : Advanced Simple@L5
Format settings, BVOP : 2
Format settings, QPel : No
Format settings, GMC : No warppoints
Format settings, Matrix : Default (MPEG)
Muxing mode : Packed bitstream
Codec ID : XVID
Codec ID/Hint : XviD
Duration : 1h 50mn
Bit rate : 2 177 Kbps
Width : 720 pixels
Height : 304 pixels
Display aspect ratio : 2.35:1
Frame rate : 24.000 fps
Color space : YUV
Chroma subsampling : 4:2:0
Bit depth : 8 bits
Scan type : Progressive
Compression mode : Lossy
Bits/(Pixel*Frame) : 0.414
Stream size : 1.68 GiB (77%)
Writing library : XviD 1.1.0 (UTC 2005-11-22)

Audio #1
ID : 1
Format : AC-3
Format/Info : Audio Coding 3
Mode extension : CM (complete main)
Format settings, Endianness : Big
Codec ID : 2000
Duration : 1h 50mn
Bit rate mode : Constant
Bit rate : 192 Kbps
Channel(s) : 2 channels
Channel positions : Front: L R
Sampling rate : 48.0 KHz
Bit depth : 16 bits
Compression mode : Lossy
Stream size : 152 MiB (7%)
Alignment : Split accross interleaves
Interleave, duration : 42 ms (1.00 video frame)
Interleave, preload duration : 500 ms
Title : Профессиональный (многоголосый, закадровый) 1 канал

Audio #2
ID : 2
Format : AC-3
Format/Info : Audio Coding 3
Mode extension : CM (complete main)
Format settings, Endianness : Big
Codec ID : 2000
Duration : 1h 50mn
Bit rate mode : Constant
Bit rate : 448 Kbps
Channel(s) : 6 channels
Channel positions : Front: L C R, Side: L R, LFE
Sampling rate : 48.0 KHz
Bit depth : 16 bits
Compression mode : Lossy
Stream size : 354 MiB (16%)
Alignment : Split accross interleaves
Interleave, duration : 42 ms (1.00 video frame)
Interleave, preload duration : 500 ms
Title : Французский
piratbit.pw



Скачать Близкие враги через торрент http://s60.radikal.ru/i170/1212/ec/fb37c43340ab.jpg Скачать фильм Близкие враги через торрент бесплантно в хорошем качестве Описание: Действие разворачивается в 1959 году. Вот уже на протяжении 5-ти лет в Алжире идёт война, которая получила название ... 5 10 1
Info! Золотая раздача, скачанное не засчитывается.
Торрент: Зарегистрирован [2013-01-18 17:34] · скачан: 39 раз
Статус: √ проверено
Размер: 2.19 GB
Как cкачать? Как скачать Близкие враги через торрент | UTorrent

28-11-2019 20:33  

Отключить всю рекламу на сайте

    Дорогой пользователь! Огромная просьба, поблагодарите релизера, оцените раздачу и оставьте свои комментарий, если Вы скачали Близкие враги через торрент бесплатно! Внесите свою лепту в развитие PiratBit!
    Комментировать посты могут только пользователи прошедшие не сложную регистрацию
    Показать сообщения:    

    Близкие враги через торрент
    Скачать бесплатно Близкие враги
    Близкие враги скачать торрент
    Близкие враги смотреть онлайн
    Cкачать фильм Близкие враги бесплатно
    Близкие враги скачать торрент в хорошем качестве
    Близкие враги смотреть онлайн бесплатно в хорошем качестве


    Вы не можете начинать темы
    Вы не можете отвечать на сообщения
    Вы не можете редактировать свои сообщения
    Вы не можете удалять свои сообщения
    Вы не можете голосовать в опросах
    Вы не можете прикреплять файлы к сообщениям
    Вы можете скачивать файлы