1 сезон

1 сезон

iTunes

1

iTunes

Кинопоиск HD

iTunes

13

1 сезон

RePack

30

Deluxe

ВАЖНО

ИГРА 18+

pack

RePack

MK11
pack

Легкие деньги

RePack

jed

RePack

fifa19

RePack

RDR2

RePack

NEED FOR SPEED™ PAYBACK

4 сезон

9 сезон

Бесстыжие 9 сезон

Все сериалы

все сериалы на PB.wtf

RePack

FAR CRY 5
  
Magnet ссылка

Мария-Антуанетта / Marie Antoinette (София Коппола / Sofia Coppola) [2006 г., Драма, биография, история, BDRip-AVC] MVO+AVO Ю.Немахов+Eng piratbit.pw

Мария-Антуанетта через торрент piratbit.pw

Раздают: 1 [ 0 KB/s ]
Размер: 3.9 GB | Добавлен: 8 лет 3 мес. назад | Торрент скачан:53 раза
Скачать  

18-01-2013 14:07 Мария-Антуанетта Скачать торрент  

Мария-Антуанетта / Marie Antoinette«Let Them Eat Cake»Год выпуска: 2006
Страна: США, Франция, Япония, Columbia Pictures Corporation, Commission du Film France, Tohokushinsha Film Corp.
Жанр: Драма, биография, история
Продолжительность: 02:02:35
Перевод: Профессиональный (многоголосый, закадровый) + Авторский одноголосый Ю.Немахов + Оригинал
Субтитры: нет

Режиссер: София Коппола / Sofia Coppola

В ролях: Кирстен Данст, Джейсон Шварцман, Джуди Дэвис, Рип Торн, Роуз Бирн, Азия Ардженто, Молли Шеннон, Ширли Хендерсон, Дэнни Хьюстон, Марианна Фэйтфулл

Описание: Блестящая и трагическая судьба французской королевы Марии-Антуанетты будет всегда изумлять и ужасать потомков. Беззаботное детство в семье отца, императора Австрии. Ранний брак в 15 лет — и с кем! — с наследником самого Людовика XV! Вступление на французский трон в 19 и полная бесконечных развлечений молодость среди роскоши Версаля. И, наконец, внезапная, ужасная смерть на гильотине под улюлюканье парижской черни. Историки говорят, что Мария-Антуанетта поплатилась головой за то, что ненавидела и не понимала простой народ. Но тогда придется признать, что эта остроумная и незаурядная женщина была примитивной стервой! У авторов данного фильма есть другая версия, которая призвана пролить свет на все темные места биографии самой знаменитой королевы в истории Франции…



Качество: BDRip-AVC
Формат: MKV
Видео кодек: H.26x
Аудио кодек: AC3
Видео: MPEG-4 AVC, 3200 Кбит/с, 1024х576, 24.000 fps (0.226 bit/pixel)
Аудио #1: АС3, 6 ch, 48 kHz, 448 Кбит/с MVO
Аудио #2: АС3, 6 ch, 48 kHz, 448 Кбит/с AVO
Аудио #3: АС3, 6 ch, 48 kHz, 448 Кбит/с ENG
Complete name : D:VideoMarija.Antuanetta.2006.x264.BDRip.(AVC).olegek70.mkv
Format : Matroska
Format version : Version 1
File size : 3.90 GiB
Duration : 2h 2mn
Overall bit rate : 4 551 Kbps
Encoded date : UTC 2013-01-06 15:39:41
Writing application : mkvmerge v2.1.0 ('Another Place To Fall') built on Aug 19 2007 13:40:07
Writing library : libebml v0.7.7 + libmatroska v0.8.1

Video
ID : 1
Format : AVC
Format/Info : Advanced Video Codec
Format profile : High@L4.1
Format settings, CABAC : Yes
Format settings, ReFrames : 8 frames
Codec ID : V_MPEG4/ISO/AVC
Duration : 2h 2mn
Bit rate : 3 200 Kbps
Width : 1 024 pixels
Height : 576 pixels
Display aspect ratio : 16:9
Frame rate : 24.000 fps
Color space : YUV
Chroma subsampling : 4:2:0
Bit depth : 8 bits
Scan type : Progressive
Bits/(Pixel*Frame) : 0.226
Stream size : 2.67 GiB (68%)
Writing library : x264 core 115 r1937 aa21558
Encoding settings : cabac=1 / ref=8 / deblock=1:-2:-2 / analyse=0x3:0x113 / me=umh / subme=8 / psy=1 / psy_rd=1.00:0.10 / mixed_ref=0 / me_range=32 / chroma_me=1 / trellis=2 / 8x8dct=1 / cqm=0 / deadzone=21,11 / fast_pskip=1 / chroma_qp_offset=-3 / threads=6 / sliced_threads=0 / nr=0 / decimate=1 / interlaced=0 / bluray_compat=0 / constrained_intra=0 / bframes=8 / b_pyramid=2 / b_adapt=2 / b_bias=0 / direct=3 / weightb=1 / open_gop=0 / weightp=0 / keyint=250 / keyint_min=23 / scenecut=40 / intra_refresh=0 / rc_lookahead=30 / rc=2pass / mbtree=1 / bitrate=3200 / ratetol=1.0 / qcomp=0.60 / qpmin=15 / qpmax=47 / qpstep=3 / cplxblur=20.0 / qblur=0.5 / ip_ratio=1.40 / aq=1:1.10
Language : English
Default : Yes
Forced : No

Audio #1
ID : 2
Format : AC-3
Format/Info : Audio Coding 3
Mode extension : CM (complete main)
Format settings, Endianness : Big
Codec ID : A_AC3
Duration : 2h 2mn
Bit rate mode : Constant
Bit rate : 448 Kbps
Channel(s) : 6 channels
Channel positions : Front: L C R, Side: L R, LFE
Sampling rate : 48.0 KHz
Bit depth : 16 bits
Compression mode : Lossy
Stream size : 393 MiB (10%)
Title : Профессиональный многоголосый (R5)
Language : Russian
Default : Yes
Forced : No

Audio #2
ID : 3
Format : AC-3
Format/Info : Audio Coding 3
Mode extension : CM (complete main)
Format settings, Endianness : Big
Codec ID : A_AC3
Duration : 2h 2mn
Bit rate mode : Constant
Bit rate : 448 Kbps
Channel(s) : 6 channels
Channel positions : Front: L C R, Side: L R, LFE
Sampling rate : 48.0 KHz
Bit depth : 16 bits
Compression mode : Lossy
Stream size : 393 MiB (10%)
Title : Авторский одноголосый (Ю.Немахов)
Language : Russian
Default : No
Forced : No

Audio #3
ID : 4
Format : AC-3
Format/Info : Audio Coding 3
Mode extension : CM (complete main)
Format settings, Endianness : Big
Codec ID : A_AC3
Duration : 2h 2mn
Bit rate mode : Constant
Bit rate : 448 Kbps
Channel(s) : 6 channels
Channel positions : Front: L C R, Side: L R, LFE
Sampling rate : 48.0 KHz
Bit depth : 16 bits
Compression mode : Lossy
Stream size : 393 MiB (10%)
Title : Оригинал
Language : English
Default : No
Forced : No
Оскар, 2007 год
Победитель (1):
Лучшие костюмы


Британская академия, 2007 год
Номинации (3):
Лучшие костюмы
Лучшая работа художника-постановщика
Лучший грим/прически


Каннский кинофестиваль, 2006 год
Победитель (1):
Приз Французской системы национального образования
Номинации (1):
Золотая пальмовая ветвь
piratbit.pw



Скачать Мария-Антуанетта через торрент http://s59.radikal.ru/i166/1301/b7/862fbcb5d6a2.jpg Скачать фильм Мария-Антуанетта через торрент бесплантно в хорошем качестве Описание: Блестящая и трагическая судьба французской королевы Марии-Антуанетты будет всегда изумлять и ужасать потомков. Беззаботное ... 5 10 1
Info! Золотая раздача, скачанное не засчитывается.
Торрент: Зарегистрирован [2013-01-18 14:07] · скачан: 53 раз
Статус: √ проверено
Размер: 3.9 GB
Как cкачать? Как скачать Мария-Антуанетта через торрент | UTorrent



Последний раз редактировалось: mihis (2013-01-18 15:53), всего редактировалось 3 раз(а)

28-11-2019 20:33  

Отключить всю рекламу на сайте

18-01-2013 15:36 Мария-Антуанетта Скачать торрент  

mihis
Укажи частоту видео и аудиоpiratbit.pw



    Дорогой пользователь! Огромная просьба, поблагодарите релизера, оцените раздачу и оставьте свои комментарий, если Вы скачали Мария-Антуанетта через торрент бесплатно! Внесите свою лепту в развитие PiratBit!
    Комментировать посты могут только пользователи прошедшие не сложную регистрацию
    Показать сообщения:    

    Мария-Антуанетта через торрент
    Скачать бесплатно Мария-Антуанетта
    Мария-Антуанетта скачать торрент
    Мария-Антуанетта смотреть онлайн
    Cкачать фильм Мария-Антуанетта бесплатно
    Мария-Антуанетта скачать торрент в хорошем качестве
    Мария-Антуанетта смотреть онлайн бесплатно в хорошем качестве


    Вы не можете начинать темы
    Вы не можете отвечать на сообщения
    Вы не можете редактировать свои сообщения
    Вы не можете удалять свои сообщения
    Вы не можете голосовать в опросах
    Вы не можете прикреплять файлы к сообщениям
    Вы можете скачивать файлы