1 сезон

3 сезон

iTunes

1

iTunes

DUB Netflix

iTunes

13

1 сезон

RePack

30

Deluxe

pack

Легкие деньги

ВАЖНО

ИГРА 18+

pack

RePack

MK11

RePack

jed

RePack

fifa19

RePack

RDR2

RePack

NEED FOR SPEED™ PAYBACK

4 сезон

9 сезон

Бесстыжие 9 сезон

Все сериалы

все сериалы на PB.wtf

RePack

FAR CRY 5

Anonymous, добрый вечер, мы не успеваем до 1 числа собрать деньги на оплату серверов, помогите нам пожалуйста в это трудное время. В качестве благодарности мы отключим Вам всю рекламу на сайте (укажите свой ник в строку Ваше имя)!

×
  
Magnet ссылка

Железнодорожный роман / Roman de gare (Клод Лелуш) [2007 г., триллер, драма, BDRip, Профессиональный + Оригинал] piratbit.pw

Железнодорожный роман через торрент piratbit.pw

Размер: 2.06 GB | Добавлен: 8 лет 5 мес. назад | Торрент скачан:50 раз
Скачать  

11-01-2013 06:53 Железнодорожный роман Скачать торрент  

Железнодорожный роман / Roman de gare

Год выпуска: 2007
Страна: Франция
Жанр: триллер, драма
Продолжительность: 01:44:51
Перевод: Профессиональный (многоголосый закадровый) + Оригинал (Французкий)

Режиссер: Клод Лелуш
Продюссер: Клод Лелуш, Доминик Комбе, Жан-Поль Де Видас
Сценарий: Клод Лелуш, Пьер Уйттерховен

Премьера в мире: 24 мая 2007

В ролях: Доминик Пиньон, Фанни Ардан, Одри Дэна, Мишель Бернье, Мириам Бойер, Зинедин Солем, Борис Вентура, Марк Риуфол, Томас Ле Дуарец, Ив Битун

Описание: Полиция допрашивает писательницу Жюдит Ралитцер. Она подозревается в убийстве, но кто её жертва? Из тюрьмы сбегает серийный убийца по кличке Фокусник, названным так из-за привычки показывать фокусы своим жертвам. На заправке парикмахерша Югетт, только что поссорившаяся с другом, переживает разрыв. К ней подходит незнакомец, который не прочь завязать разговор. А вдруг это тот самый маньяк? Действие перепрыгивает во времени, герои оказываются связаны друг с другом, а зрителю предстоит поломать голову в попытках понять, кто же на самом деле Фокусник и в чём обвиняется знаменитая писательница.

Качество: BDRip (Исходник BD-Remux)
Формат: AVI
Видео кодек: XviD
Аудио кодек: AC3
Видео: 720х304, 24,000 fps, 1957 kbps, 0.373 bit/pixel
Аудио#1: 48 kHz, AC3 5.1, 384.00 kbps / Профессиональный (многоголосый закадровый)
Аудио#2: 48 kHz, AC3 5.1, 384.00 kbps / Оригинал (Французкий)
&
Общее
Полное имя : E:Фильмы МRoman de gare.2007.BDRip.avi
Формат : AVI
Формат/Информация : Audio Video Interleave
Профиль формата : OpenDML
Размер файла : 2,06 Гбайт
Продолжительность : 1 ч. 44 м.
Общий поток : 2807 Кбит/сек
Программа кодирования : VirtualDubModRus 1.5.10.2 (build 2542/release)
Библиотека кодирования : VirtualDubMod build 2542/release

Видео
Идентификатор : 0
Формат : MPEG-4 Visual
Профиль формата : Advanced Simple@L5
Параметр BVOP формата : 1
Параметр QPel формата : Нет
Параметр GMC формата : Без точки перехода
Параметр матрицы формата : Выборочная
Режим смешивания : Сжатый битовый поток
Идентификатор кодека : XVID
Идентификатор кодека/Подсказка : XviD
Продолжительность : 1 ч. 44 м.
Битрейт : 1957 Кбит/сек
Ширина : 720 пикселей
Высота : 304 пикселя
Соотношение сторон : 2,35:1
Частота кадров : 24,000 кадра/сек
Цветовое пространство : YUV
Субдискретизация насыщенности : 4:2:0
Битовая глубина : 8 бит
Тип развёртки : Прогрессивная
Метод сжатия : С потерями
Бит/(Пиксели*Кадры) : 0.373
Размер потока : 1,43 Гбайт (70%)
Библиотека кодирования : XviD 65

Аудио #1
Идентификатор : 1
Формат : AC-3
Формат/Информация : Audio Coding 3
Расширение режима : CM (complete main)
Параметр Endianness формата : Big
Идентификатор кодека : 2000
Продолжительность : 1 ч. 44 м.
Вид битрейта : Постоянный
Битрейт : 384 Кбит/сек
Каналы : 6 каналов
Расположение каналов : Front: L C R, Side: L R, LFE
Частота : 48,0 КГц
Битовая глубина : 16 бит
Метод сжатия : С потерями
Размер потока : 288 Мбайт (14%)
Выравнивание : Разделение по промежуткам
Продолжительность промежутка : 42 мс. (1,00 видеокадр)
Время предзагрузки промежутка : 500 мс.
Заголовок : Профессиональный (многоголосый закадровый)

Аудио #2
Идентификатор : 2
Формат : AC-3
Формат/Информация : Audio Coding 3
Расширение режима : CM (complete main)
Параметр Endianness формата : Big
Идентификатор кодека : 2000
Продолжительность : 1 ч. 44 м.
Вид битрейта : Постоянный
Битрейт : 448 Кбит/сек
Каналы : 6 каналов
Расположение каналов : Front: L C R, Side: L R, LFE
Частота : 48,0 КГц
Битовая глубина : 16 бит
Метод сжатия : С потерями
Размер потока : 336 Мбайт (16%)
Выравнивание : Разделение по промежуткам
Продолжительность промежутка : 42 мс. (1,00 видеокадр)
Время предзагрузки промежутка : 500 мс.
Заголовок : Оригинал (Французкий)


Железнодорожный роман скачать торрент


piratbit.pw



Скачать Железнодорожный роман через торрент http://i54.fastpic.ru/big/2013/0111/a4/b09ee39680561f849fb4c900391880a4.png Скачать фильм Железнодорожный роман через торрент бесплантно в хорошем качестве Описание: Полиция допрашивает писательницу Жюдит Ралитцер. Она подозревается в убийстве, но кто её жертва? Из тюрьмы сбегает серийный ... 5 10 1
Info! Золотая раздача, скачанное не засчитывается.
Торрент: Зарегистрирован [2013-01-11 06:53] · скачан: 50 раз
Статус: √ проверено
Размер: 2.06 GB
Как cкачать? Как скачать Железнодорожный роман через торрент | UTorrent

% Раздел Тема Автор DL S | L
Фильмы [HD 720p, 1080p] (Хороший звук DUB, MVO) [ 3.83 GB ] Железнодорожный роман / Roman de gare [2007 BDRip 720p] MVO msltel Скачать
1 | 0
Фильмы [HD 720p, 1080p] (Хороший звук DUB, MVO) [ 8.86 GB ] Железнодорожный роман / Roman de gare [2007 BDRip1080p] MVO msltel Скачать
1 | 0
Фильмы 2006-2008 [ 2.46 GB ] Железнодорожный роман / Roman de gare [2007 BDRip AVC] MVO msltel Скачать
1 | 0

28-11-2019 20:33  

Отключить всю рекламу на сайте

    Дорогой пользователь! Огромная просьба, поблагодарите релизера, оцените раздачу и оставьте свои комментарий, если Вы скачали Железнодорожный роман через торрент бесплатно! Внесите свою лепту в развитие PiratBit!
    Комментировать посты могут только пользователи прошедшие не сложную регистрацию
    Показать сообщения:    

    Железнодорожный роман через торрент
    Скачать бесплатно Железнодорожный роман
    Железнодорожный роман скачать торрент
    Железнодорожный роман смотреть онлайн
    Cкачать фильм Железнодорожный роман бесплатно
    Железнодорожный роман скачать торрент в хорошем качестве
    Железнодорожный роман смотреть онлайн бесплатно в хорошем качестве


    Вы не можете начинать темы
    Вы не можете отвечать на сообщения
    Вы не можете редактировать свои сообщения
    Вы не можете удалять свои сообщения
    Вы не можете голосовать в опросах
    Вы не можете прикреплять файлы к сообщениям
    Вы можете скачивать файлы