новый адрес пиратбит piratbit
Мега распродажа FORZA HORIZON 4 ULTIMATE+ВСЕ DLC+ОНЛАЙН всего за 499р. 349 руб. (супер цена). Внимание количество ограничено!!!

iTunes

1+1

iTunes

мы

iTunes

1

iTunes

Чернобыль

iTunes

Ральф против интернета

Лицензия

ПШазам

Лицензия

Игра престолов

Лицензия

30
pack

ВАЖНО

!!Акция!!

Alien_RageХит недели

RePack

Resident Evil 21

ИГРА 18+

pack

RePack

Metro:Exodus

!!Акция!!

Alien_Rage

RePack

fifa19

RePack

Assassins Creed: Odyssey

RePack

NEED FOR SPEED™ PAYBACK

3 сезон

9 сезон

Бесстыжие 9 сезон

Все сериалы

все сериалы на PB.wtf

RePack

FAR CRY 5
Ребята, катастрофически не хватает 1900р. для оплаты серверов за Октябрь (всвязи с блокировками трафик упал в 3 раза), 1-2р., выручайте.
  

Охотник за головами / The Bounty Hunter (Энди Теннант / Andy Tennant) [2010, Боевик, комедия, BDRip] [Dub] piratbit.pw

Охотник за головами через торрент piratbit.pw

Размер: 1.46 GB | Добавлен: 3 года 9 мес. назад | Торрент скачан:210 раз
Скачать  

23-01-2016 19:57 Охотник за головами Скачать торрент  

Охотник за головами / The Bounty Hunter

Год выпуска: 2010
Страна: США | |
Жанр: Боевик, комедия.
Продолжительность: 01:50:38
Перевод: Профессиональный (дублированный)
Cубтитры: нет

Режиссер: Энди Теннант / Andy Tennant.

В ролях: Джерард Батлер, Дженнифер Энистон, Джио Перез, Джоэль Гарлэнд, Джейсон Колотурос, Мэтт Мэллой, Джейсон Судейкис, Адам Роуз, Кристин Барански, Дориан Миссик.

Описание: Главный герой — Майло, бывший полицейский, а теперь охотник за головами, занимающийся розыском беглых преступников. Он получает задание найти и отправить в тюрьму журналистку Николь, сбежавшую из-под залога. Ирония ситуации в том, что Николь — бывшая жена Майло.

Качество видео: BDRip исх. [BDRemux/1080p/]
Формат видео: AVI
Видео: 720x304 (2.37:1), 23.976 fps, XviD MPEG-4 ~1494 kbps avg, 0.28 bit/pixel
Аудио: 48 kHz, AC3 Dolby Digital, 3/2 (L,C,R,l,r) + LFE ch, ~384 kbps
General
Complete name : D:\Охотник за головами.(Logan1995).avi
Format : AVI
Format/Info : Audio Video Interleave
File size : 1,46 Гбайт
Duration : 1 ч. 50 м.
Overall bit rate : 1887 Кбит/сек
Video
ID : 0
Format : MPEG-4 Visual
Format profile : Advanced Simple@L5
Format settings, BVOP : 1
Format settings, QPel : Нет
Format settings, GMC : Без точки перехода
Format settings, Matrix : Выборочная
Codec ID : XVID
Codec ID/Hint : XviD
Duration : 1 ч. 50 м.
Bit rate : 1494 Кбит/сек
Width : 720 пикс.
Height : 304 пикс.
Display aspect ratio : 2,35:1
Frame rate : 23,976 кадр/сек
Color space : YUV
Chroma subsampling : 4:2:0
Bit depth : 8 бит
Scan type : Прогрессивная
Compression mode : С потерями
Bits/(Pixel*Frame) : 0.285
Stream size : 1,15 Гбайт (79%)
Writing library : XviD 1.2.1 (UTC 2008-12-04)
Audio
ID : 1
Format : AC-3
Format/Info : Audio Coding 3
Mode extension : CM (complete main)
Codec ID : 2000
Duration : 1 ч. 50 м.
Bit rate mode : Постоянный
Bit rate : 384 Кбит/сек
Channel(s) : 6 канала(ов)
Channel positions : Front: L C R, Side: L R, LFE
Sampling rate : 48,0 КГц
Bit depth : 16 бит
Compression mode : С потерями
Stream size : 304 Мбайт (20%)
Alignment : Соединение по промежуткам
Interleave, duration : 42 мс. (1,00 видеокадр)
Interleave, preload duration : 512 ms
piratbit.pw



Скачать Охотник за головами через торрент http://i32.fastpic.ru/big/2011/1101/ca/a8ae7aec970ba59627b9ce05464fe5ca.png Скачать фильм Охотник за головами через торрент бесплантно в хорошем качестве Описание: Главный герой — Майло, бывший полицейский, а теперь охотник за головами, занимающийся розыском беглых преступников. Он получает ... 10 10 2
Торрент: Зарегистрирован [2016-01-23 19:57] · скачан: 210 раз
Статус: √ проверено
Размер: 1.46 GB
Как cкачать? Как скачать Охотник за головами через торрент | qTorrent

% Раздел Тема Автор DL S | L
T Фильмы (мультфильмы) cо спонсором показа (Новинки AVI/MKV) [ 1.37 GB ] Бун: Охотник за головами / Boone: The Bounty Hunter [2017 HDRip] MVO [@MUZOBOZ@] bober100 Скачать
2 | 0
# Фильмы (мультфильмы) cо спонсором показа (Новинки AVI/MKV) [ 4.08 GB ] Бун: Охотник за головами / Boone: The Bounty Hunter [2017 BDRip 720p] MVO [@MUZOBOZ@] bober100 Скачать
1 | 0
Фильмы [HD 720p, 1080p] (Хороший звук DUB, MVO) [ 5.37 GB ] Охотник за головами / The Bounty Hunter [2010 BDRip 720p] DUB potroks Скачать
1 | 0
Фильмы 2010 [ 1.46 GB ] Охотник за головами / The Bounty Hunter [2010 Мело BDRip DUB + DUB ] bogyn Скачать
2 | 0
Фильмы 2010 [ 2.78 GB ] Охотник за головами / The Bounty Hunter [2010 BDRip-AVC] [720р] DUB + Original + Subs IceDevil71 Скачать
1 | 0
Фильмы 2010 [ 2.05 GB ] Охотник за головами / The Bounty Hunter [2010 DVDRip] Venxxx Скачать
1 | 0
Фильмы [HD 720p, 1080p] (Хороший звук DUB, MVO) [ 5.33 GB ] Охотник за головами / The Bounty Hunter [720p] [2010 BDRip] EXEBET Скачать
1 | 0


>> Регистрируемся здесь <<






Отзывы и комментарии о схеме читаем и пишем здесь: ---> Отзывы и комментарии о схеме

Новые благодарочки в телеграм довольных пользователей:
скриншот   скриншот   скриншот   скриншот   скриншот
    Дорогой пользователь! Огромная просьба, поблагодарите релизера, оцените раздачу и оставьте свои комментарий, если Вы скачали Охотник за головами через торрент бесплатно! Внесите свою лепту в развитие PiratBit!
    Комментировать посты могут только пользователи прошедшие не сложную регистрацию
    Показать сообщения:    

    Охотник за головами через торрент
    Скачать бесплатно Охотник за головами
    Охотник за головами скачать торрент
    Охотник за головами смотреть онлайн
    Cкачать фильм Охотник за головами бесплатно
    Охотник за головами скачать торрент в хорошем качестве
    Охотник за головами смотреть онлайн бесплатно в хорошем качестве


    Вы не можете начинать темы
    Вы не можете отвечать на сообщения
    Вы не можете редактировать свои сообщения
    Вы не можете удалять свои сообщения
    Вы не можете голосовать в опросах
    Вы не можете прикреплять файлы к сообщениям
    Вы можете скачивать файлы