Ссылка на приватное зеркало всего за 1$. Внимание количество ограничено!!!

iTunes

iTunes

iTunes

1

iTunes

iTunes

iTunes

iTunes

iTunes

30
pack

Новость дня

ВАЖНО

!!Акция!!

Alien_RageХит недели

RePack

Resident Evil 21

ИГРА 18+

pack

RePack

jed

!!Акция!!

Alien_Rage

RePack

fifa19

RePack

Assassins Creed: Odyssey

RePack

NEED FOR SPEED™ PAYBACK

4 сезон

9 сезон

Бесстыжие 9 сезон

Все сериалы

все сериалы на PB.wtf

RePack

FAR CRY 5
  

Мидуэй - Midway (Роланд Эммерих) [2019, военный, BDRip - HEVC 1080p 10 bit 60 FPS] Дубляж - [Лицензия] piratbit.pw

Мидуэй - Midway через торрент piratbit.pw

Раздают: 9 [ 3 KB/s ]
Размер: 4.24 GB | Добавлен: 2 мес. 24 д. назад | Торрент скачан:258 раз
Скачать  

07-03-2020 18:59 Мидуэй - Midway Скачать торрент  

Мидуэй / Midway
««Based on real events»»

Год выпуска: 2019
Страна: США
Жанр: военный.

Продолжительность: 02:18:26
Перевод: Дубляж - [Лицензия]
Режиссер: Роланд Эммерих
В ролях:

Эд Скрейн (Dick Best), Патрик Уилсон (Edwin Layton), Вуди Харрельсон (Chester W. Nimitz), Люк Эванс (Wade McClusky), Мэнди Мур (Ann Best), Люк Клеинтенк (Clarence Dickinson), Деннис Куэйд (William «Bull» Halsey), Аарон Экхарт (Jimmy Doolittle), Киан Джонсон (James Murray), Ник Джонас (Bruno Gaido), Эцуси Тоёкава (Isoroku Yamamoto), Таданобу Асано (Tamon Yamaguchi)
Описание:
История одного из самых масштабных и стратегически важных морских сражений на Тихом океане Второй мировой войны. После разгрома японской авиацией большей части флота США в Перл-Харборе до этого придерживавшаяся нейтралитета Америка вступает в войну. В июне 1942 года остатки американского флота под командованием адмирала Честера Нимица сражаются с Императорским флотом Японии у атолла Мидуэй.
Мировая премьера: 24 октября 2019

Качество: BDRip 1080p Rip by DD2D3
Исходник: BDRemux 1080p by SeLeZeN
Формат: MKV
Видео: V_MPEGH/ISO/HEVC, 1920x804 (2.40:1), 4001 kbps, 59,940 fps, 0,043 bpp
Аудио: русский / AC3 / 5.1 / 48 kHz / 384 kbps / ||
Навигация по главам: есть


General
Unique ID : 179897447007942663838983958389456532206 (0x8756FCEE4C53D92EBBC40ACB2D0A72EE)
Complete name : D:\Мидуэй - Midway (2019) BDRip - HEVC 1080p 10 bit 60 FPS.mkv
Format : Matroska
Format version : Version 4
File size : 4.24 GiB
Duration : 2 h 18 min
Overall bit rate : 4 389 kb/s
Movie name : Rip by DD2D3
Encoded date : UTC 2020-03-07 18:19:32
Writing application : mkvmerge v10.0.0 ('To Drown In You') 32bit
Writing library : libebml v1.3.4 + libmatroska v1.4.5
Attachments : poster

Video
ID : 1
Format : HEVC
Format/Info : High Efficiency Video Coding
Format profile : Main 10@L4.1@Main
Codec ID : V_MPEGH/ISO/HEVC
Duration : 2 h 18 min
Bit rate : 4 002 kb/s
Width : 1 920 pixels
Height : 804 pixels
Display aspect ratio : 2.40:1
Frame rate mode : Constant
Frame rate : 59.940 (60000/1001) FPS
Color space : YUV
Chroma subsampling : 4:2:0
Bit depth : 10 bits
Bits/(Pixel*Frame) : 0.043
Stream size : 3.87 GiB (91%)
Writing library : x265 2.3+33-0b7d54dbb71a87a0:[Windows][MSVC 1800][64 bit] 10bit: KG7x [x265.ru]
Encoding settings : cpuid=1173503 / frame-threads=2 / numa-pools=4 / wpp / no-pmode / no-pme / no-psnr / no-ssim / log-level=2 / input-csp=1 / input-res=1920x804 / interlace=0 / total-frames=497816 / level-idc=41 / high-tier=1 / uhd-bd=0 / ref=3 / no-allow-non-conformance / no-repeat-headers / annexb / no-aud / no-hrd / info / hash=0 / no-temporal-layers / open-gop / min-keyint=25 / keyint=250 / bframes=4 / b-adapt=2 / b-pyramid / bframe-bias=0 / rc-lookahead=20 / lookahead-slices=5 / scenecut=40 / no-intra-refresh / ctu=64 / min-cu-size=8 / no-rect / no-amp / max-tu-size=32 / tu-inter-depth=1 / tu-intra-depth=1 / limit-tu=0 / rdoq-level=0 / dynamic-rd=0.00 / no-ssim-rd / signhide / no-tskip / nr-intra=0 / nr-inter=0 / no-constrained-intra / strong-intra-smoothing / max-merge=2 / limit-refs=3 / no-limit-modes / me=1 / subme=2 / merange=57 / temporal-mvp / weightp / no-weightb / no-analyze-src-pics / deblock=0:0 / no-sao / no-sao-non-deblock / rd=3 / no-early-skip / no-rskip / no-fast-intra / no-tskip-fast / no-cu-lossless / no-b-intra / rdpenalty=0 / psy-rd=4.00 / psy-rdoq=0.00 / no-rd-refine / analysis-mode=0 / no-lossless / cbqpoffs=0 / crqpoffs=0 / rc=abr / bitrate=4000 / qcomp=0.60 / qpstep=1 / stats-write=0 / stats-read=2 / cplxblur=20.0 / qblur=0.5 / ipratio=1.10 / pbratio=1.00 / aq-mode=0 / aq-strength=0.00 / no-cutree / zone-count=0 / no-strict-cbr / qg-size=64 / rc-grain / qpmax=69 / qpmin=0 / sar=1 / overscan=0 / videoformat=5 / range=0 / colorprim=2 / transfer=2 / colormatrix=2 / chromaloc=0 / display-window=0 / max-cll=0,0 / min-luma=0 / max-luma=1023 / log2-max-poc-lsb=8 / vui-timing-info / vui-hrd-info / slices=1 / opt-qp-pps / opt-ref-list-length-pps / no-multi-pass-opt-rps / scenecut-bias=0.05 / no-opt-cu-delta-qp / no-aq-motion / no-hdr / no-hdr-opt / refine-level=5 / no-limit-sao
Default : Yes
Forced : No

Audio
ID : 2
Format : AC-3
Format/Info : Audio Coding 3
Commercial name : Dolby Digital
Codec ID : A_AC3
Duration : 2 h 18 min
Bit rate mode : Constant
Bit rate : 384 kb/s
Channel(s) : 6 channels
Channel layout : L R C LFE Ls Rs
Sampling rate : 48.0 kHz
Frame rate : 31.250 FPS (1536 SPF)
Compression mode : Lossy
Stream size : 380 MiB (9%)
Title : iTunes
Language : Russian
Service kind : Complete Main
Default : Yes
Forced : Yes

Menu
00:00:00.000 : en:Глава 01
00:06:55.832 : en:Глава 02
00:13:53.207 : en:Глава 03
00:20:24.765 : en:Глава 04
00:27:03.330 : en:Глава 05
00:32:55.182 : en:Глава 06
00:40:35.975 : en:Глава 07
00:46:57.732 : en:Глава 08
00:53:50.769 : en:Глава 09
01:01:12.544 : en:Глава 10
01:07:55.113 : en:Глава 11
01:14:48.734 : en:Глава 12
01:21:41.105 : en:Глава 13
01:27:32.038 : en:Глава 14
01:35:09.537 : en:Глава 15
01:42:11.125 : en:Глава 16
01:48:30.671 : en:Глава 17
01:54:44.127 : en:Глава 18
02:02:23.002 : en:Глава 19
02:09:12.787 : en:Глава 20
скриншот  скриншот  скриншот  скриншот  скриншот  

© Оформление by DD2D3 piratbit.pw



Скачать Мидуэй - Midway через торрент https://funkyimg.com/i/32UzQ.jpg Скачать фильм Мидуэй - Midway через торрент бесплантно в хорошем качестве Описание: История одного из самых масштабных и стратегически важных морских сражений на Тихом океане Второй мировой войны. После разгрома ... 9.7 10 6
Торрент: Зарегистрирован [2020-03-07 18:59] · скачан: 258 раз
Статус: √ проверено
Размер: 4.24 GB
Как cкачать? Как скачать Мидуэй - Midway через торрент | qTorrent

% Раздел Тема Автор DL S | L
Фильмы (HD 720p, 1080p) (48-60 fps) [ 18.93 GB ] Мидуэй / Midway [2019 военный история BDRip 1080p 60 fps] sheker187 Скачать
1 | 0
Фильмы [HD 720p, 1080p] (Хороший звук DUB, MVO) [ 8.86 GB ] Мидуэй / Midway [2019 военный история BDRip 1080p] bober100 Скачать
28 | 0
Ultra HD (UHD: 2K, 4K, 8K) — видео сверхвысокой чёткости [ 73.84 GB ] Мидуэй / Midway [2019 военный история UHD BDRemux 2160p ] bober100 Скачать
1 | 0
Фильмы 2019-2020 [DVDrip, WEB-DLRip, HDrip] (DUB, MVO) [ 2.12 GB ] Мидуэй / Midway [2019 военный история BDRip] - Twi7ter Скачать
45 | 2
Фильмы 2019-2020 [DVDrip, WEB-DLRip, HDrip] (DUB, MVO) [ 1.46 GB ] Мидуэй / Midway [2019 военный история BDRip] - Twi7ter Скачать
47 | 0
Ultra HD (UHD: 2K, 4K, 8K) — видео сверхвысокой чёткости [ 25.41 GB ] Мидуэй / Midway [2019 военный история UHD BDRip 2160p] bober100 Скачать
5 | 0
Фильмы 2019-2020 [DVDrip, WEB-DLRip, HDrip] (DUB, MVO) [ 798 MB ] Мидуэй / Midway [2019 военный история HDRip] bober100 Скачать
5 | 0

28-11-2019 20:33  

Отключить всю рекламу на сайте

08-03-2020 13:54 Мидуэй - Midway Скачать торрент  

А афиша-то со старого Мидуэя..не помню какого года..к чему-бы это..а ??piratbit.pw



22-03-2020 11:39 Мидуэй - Midway Скачать торрент  

фильм - редкостный кал.piratbit.pw



    Дорогой пользователь! Огромная просьба, поблагодарите релизера, оцените раздачу и оставьте свои комментарий, если Вы скачали Мидуэй - Midway через торрент бесплатно! Внесите свою лепту в развитие PiratBit!
    Комментировать посты могут только пользователи прошедшие не сложную регистрацию
    Показать сообщения:    

    Мидуэй - Midway через торрент
    Скачать бесплатно Мидуэй - Midway
    Мидуэй - Midway скачать торрент
    Мидуэй - Midway смотреть онлайн
    Cкачать фильм Мидуэй - Midway бесплатно
    Мидуэй - Midway скачать торрент в хорошем качестве
    Мидуэй - Midway смотреть онлайн бесплатно в хорошем качестве


    Вы не можете начинать темы
    Вы не можете отвечать на сообщения
    Вы не можете редактировать свои сообщения
    Вы не можете удалять свои сообщения
    Вы не можете голосовать в опросах
    Вы не можете прикреплять файлы к сообщениям
    Вы можете скачивать файлы