Ссылка на приватное зеркало всего за 1$. Внимание количество ограничено!!!

iTunes

iTunes

iTunes

1

iTunes

iTunes

iTunes

iTunes

iTunes

30
pack

Новость дня

ВАЖНО

!!Акция!!

Alien_RageХит недели

RePack

Resident Evil 21

ИГРА 18+

pack

RePack

jed

!!Акция!!

Alien_Rage

RePack

fifa19

RePack

Assassins Creed: Odyssey

RePack

NEED FOR SPEED™ PAYBACK

4 сезон

9 сезон

Бесстыжие 9 сезон

Все сериалы

все сериалы на PB.wtf

RePack

FAR CRY 5
  

Вампиры / Vampires (Джон Карпентер) [1998 г., Боевик, Фэнтези, Ужасы, Триллер, BDRip 720p / 60 FPS, Дубляж] от R.G. HD-Films piratbit.pw

Вампиры через торрент piratbit.pw

Раздают: 2 [ 0 KB/s ]
Размер: 3 GB | Добавлен: 3 мес. 30 д. назад | Торрент скачан:86 раз
Скачать  

01-02-2020 16:48 Вампиры Скачать торрент  

Вампиры / Vampires
Год выпуска: 1998
Страна: Япония, США
Жанр: Боевик, Фэнтези, Ужасы, Триллер
Продолжительность: 01:47:47
Перевод: Дубляж
Субтитры: Russian, English

Режиссер: Джон Карпентер

Бюджет: $20 000 000
Премьера в мире: 15 апреля 1998

rating

В ролях: Джеймс Вудс /James Woods/, Дэниэл Болдуин /Daniel Baldwin/, Шерил Ли /Sheryl Lee/, Томас Йен Гриффит /Thomas Ian Griffith/, Максимилиан Шелл /Maximilian Schell/, Тим Гини /Tim Guinee/, Марк Бун Джуниор /Mark Boone Junior/, ...

Описание: По заданию Ватикана Джек Кроу, потомственный охотник на вампиров, и его друг, и напарник Монтойя безжалостно расправляются с вурдалаками, но их главная цель — особо опасный вампир Валек, уроженец Праги, 1300-го года рождения. В охоте на вампира Джеку и Монтойе помогает молодой священник, вооруженный знаниями из древних трактатов о кровососах.
Валек ищет в Штатах древнее распятие, обладающее особой силой. Как известно, вампиры боятся солнечных лучей, убивающих их. Проведение магического обряда с распятием позволит Валеку не бояться солнечного света и сделает его всемогущим. Охотники за вампирами должны поспешить, пока Валек еще уязвим, пока его еще можно убить…

Качество: BDRip 720p / 60 FPS
Формат: MKV
Видео кодек: H.264
Аудио кодек: AC3
Видео: x264, 1280 x 536 ( 2,40:1 ), 3598 kbps, 60,000 fps, ( 0.087 bpp)
Аудио#1: Русский, AC-3, 48.0 KHz, 6 ch, 384 Kbps ( Dub Мосфильм )


скриншот   скриншот   скриншот   скриншот   скриншот  Автор рипа: slaventi-69
x264 [info]: frame I:2276 Avg QP:15.34 size: 87460
x264 [info]: frame P:95443 Avg QP:18.20 size: 17987
x264 [info]: frame B:290289 Avg QP:21.55 size: 3418
x264 [info]: consecutive B-frames: 3.0% 4.3% 9.1% 9.6% 68.7% 5.3%


Общее
Уникальный идентификатор : 17947876639480988373776102371312770069 (0xD80A2A366E00F4FDA21E99EB5A39C15)
Полное имя : F:\Vampires.(1998).BDRip.720p.(60 Fps).mkv
Формат : Matroska
Версия формата : Version 4
Размер файла : 3,00 Гбайт
Продолжительность : 1 ч. 47 м.
Общий поток : 3986 Кбит/сек
Название фильма : Вампиры / Vampires (1998) BDRip 720p (60 Fps)
Дата кодирования : UTC 2020-01-27 12:27:59
Программа кодирования : mkvmerge v42.0.0 ('Overtime') 64-bit
Библиотека кодирования : libebml v1.3.10 + libmatroska v1.5.2

Видео
Идентификатор : 1
Формат : AVC
Формат/Информация : Advanced Video Codec
Профиль формата : High@L4.1
Настройки формата : CABAC / 8 Ref Frames
Параметр CABAC формата : Да
Параметр RefFrames формата : 8 кадров
Идентификатор кодека : V_MPEG4/ISO/AVC
Продолжительность : 1 ч. 47 м.
Битрейт : 3598 Кбит/сек
Ширина : 1280 пикселей
Высота : 536 пикселей
Соотношение сторон : 2,40:1
Режим частоты кадров : Постоянный
Частота кадров : 60,000 кадров/сек
Цветовое пространство : YUV
Субдискретизация насыщенности : 4:2:0
Битовая глубина : 8 бит
Тип развёртки : Прогрессивная
Бит/(Пиксели*Кадры) : 0.087
Размер потока : 2,71 Гбайт (90%)
Заголовок : slaventi-69 ( R.G. HD-Films | 60 fps )
Библиотека кодирования : x264 core 130 r2273 b3065e6
Настройки программы : cabac=1 / ref=8 / deblock=1:-1:-1 / analyse=0x3:0x133 / me=umh / subme=9 / psy=1 / psy_rd=1.00:0.00 / mixed_ref=1 / me_range=26 / chroma_me=1 / trellis=2 / 8x8dct=1 / cqm=0 / deadzone=21,11 / fast_pskip=0 / chroma_qp_offset=-2 / threads=10 / lookahead_threads=8 / sliced_threads=0 / nr=0 / decimate=1 / interlaced=0 / bluray_compat=0 / constrained_intra=0 / bframes=5 / b_pyramid=2 / b_adapt=2 / b_bias=0 / direct=3 / weightb=1 / open_gop=0 / weightp=2 / keyint=250 / keyint_min=25 / scenecut=40 / intra_refresh=0 / rc_lookahead=50 / rc=crf / mbtree=1 / crf=16.5 / qcomp=0.60 / qpmin=0 / qpmax=69 / qpstep=4 / ip_ratio=1.40 / aq=1:1.00
Язык : English
Default : Да
Forced : Нет

Аудио
Идентификатор : 2
Формат : AC-3
Формат/Информация : Audio Coding 3
Коммерческое название : Dolby Digital
Идентификатор кодека : A_AC3
Продолжительность : 1 ч. 47 м.
Вид битрейта : Постоянный
Битрейт : 384 Кбит/сек
Каналы : 6 каналов
Channel layout : L R C LFE Ls Rs
Частота : 48,0 КГц
Частота кадров : 31,250 кадров/сек (1536 SPF)
Битовая глубина : 16 бит
Метод сжатия : С потерями
Размер потока : 296 Мбайт (10%)
Заголовок : Dub Мосфильм
Язык : Russian
ServiceKind/String : Complete Main
Default : Да
Forced : Нет

Текст #1
Идентификатор : 3
Формат : UTF-8
Идентификатор кодека : S_TEXT/UTF8
Идентификатор кодека/Информация : UTF-8 Plain Text
Продолжительность : 1 ч. 41 м.
Битрейт : 63 бит/сек
ElementCount : 787
Размер потока : 47,3 Кбайт (0%)
Язык : Russian
Default : Нет
Forced : Нет

Текст #2
Идентификатор : 4
Формат : UTF-8
Идентификатор кодека : S_TEXT/UTF8
Идентификатор кодека/Информация : UTF-8 Plain Text
Продолжительность : 1 ч. 41 м.
Битрейт : 38 бит/сек
ElementCount : 964
Размер потока : 28,7 Кбайт (0%)
Язык : English
Default : Нет
Forced : Нет

Меню
00:00:00.000 : en:00:00:00.000
00:03:37.667 : en:00:03:37.667
00:11:02.417 : en:00:11:02.417
00:14:55.625 : en:00:14:55.625
00:19:05.583 : en:00:19:05.583
00:22:33.125 : en:00:22:33.125
00:25:50.292 : en:00:25:50.292
00:28:38.250 : en:00:28:38.250
00:35:29.000 : en:00:35:29.000
00:39:50.167 : en:00:39:50.167
00:45:37.167 : en:00:45:37.167
00:52:25.583 : en:00:52:25.583
00:57:38.750 : en:00:57:38.750
00:59:34.042 : en:00:59:34.042
01:01:23.583 : en:01:01:23.583
01:06:36.792 : en:01:06:36.792
01:13:40.417 : en:01:13:40.417
01:19:01.500 : en:01:19:01.500
01:25:30.333 : en:01:25:30.333
01:29:50.083 : en:01:29:50.083
01:31:48.958 : en:01:31:48.958
01:34:21.167 : en:01:34:21.167
01:39:16.958 : en:01:39:16.958
01:43:34.417 : en:01:43:34.417

Просьба к переливающим на другие сайты, в оформлении указывайте пожалуйста авторство группы R.G. HD-Films piratbit.pw



Скачать Вампиры через торрент http://ecx.images-amazon.com/images/I/51QMO1mo48L.jpg Скачать фильм Вампиры через торрент бесплантно в хорошем качестве Описание: По заданию Ватикана Джек Кроу, потомственный охотник на вампиров, и его друг, и напарник Монтойя безжалостно расправляются с ... 10 10 2
Торрент: Зарегистрирован [2020-02-01 16:48] · скачан: 86 раз
Статус: √ проверено
Размер: 3 GB
Как cкачать? Как скачать Вампиры через торрент | qTorrent

% Раздел Тема Автор DL S | L
Фильмы до 2000 г. [ 2.18 GB ] Вампиры / Vampires [1998 HDRip-AVC d2Lab) + White Smoke Скачать
1 | 0
Фильмы [HD 720p, 1080p] (Хороший звук DUB, MVO) [ 6.83 GB ] Академия вампиров / Vampire Academy [2014 BDRip 1080pMVO [BaibaKo] от R.G. HD-Films Ворон Скачать
1 | 0

28-11-2019 20:33  

Отключить всю рекламу на сайте

    Дорогой пользователь! Огромная просьба, поблагодарите релизера, оцените раздачу и оставьте свои комментарий, если Вы скачали Вампиры через торрент бесплатно! Внесите свою лепту в развитие PiratBit!
    Комментировать посты могут только пользователи прошедшие не сложную регистрацию
    Показать сообщения:    

    Вампиры через торрент
    Скачать бесплатно Вампиры
    Вампиры скачать торрент
    Вампиры смотреть онлайн
    Cкачать фильм Вампиры бесплатно
    Вампиры скачать торрент в хорошем качестве
    Вампиры смотреть онлайн бесплатно в хорошем качестве


    Вы не можете начинать темы
    Вы не можете отвечать на сообщения
    Вы не можете редактировать свои сообщения
    Вы не можете удалять свои сообщения
    Вы не можете голосовать в опросах
    Вы не можете прикреплять файлы к сообщениям
    Вы можете скачивать файлы